Вход  •  Регистрация

Lietuvos tūkstantmečio vaikai (LT, 05.04.2020)

Каталог видеорелизов — архив записей телеигр со всего мира.

Сообщение » 12.06.2020, 18:27

Информация о файле:
Код: Выделить всё
General
Complete name                            : Lietuvos tūkstantmečio vaikai. Geriausių vienuoliktokų final.mp4
Format                                   : MPEG-4
Format profile                           : Base Media
Codec ID                                 : isom (isom/iso2/avc1/mp41)
File size                                : 1.29 GiB
Duration                                 : 50mn 4s
Overall bit rate mode                    : Variable
Overall bit rate                         : 3 700 Kbps
Encoded date                             : UTC 1904-01-01 00:00:00
Tagged date                              : UTC 1904-01-01 00:00:00

Video
ID                                       : 1
Format                                   : AVC
Format/Info                              : Advanced Video Codec
Format profile                           : Main@L4
Format settings, CABAC                   : Yes
Format settings, ReFrames                : 4 frames
Codec ID                                 : avc1
Codec ID/Info                            : Advanced Video Coding
Duration                                 : 50mn 4s
Source duration                          : 50mn 4s
Bit rate mode                            : Constant
Bit rate                                 : 3 500 Kbps
Width                                    : 1 912 pixels
Original width                           : 1 920 pixels
Height                                   : 1 088 pixels
Original height                          : 1 080 pixels
Display aspect ratio                     : 16:9
Frame rate mode                          : Variable
Frame rate                               : 25.000 fps
Minimum frame rate                       : 6.250 fps
Maximum frame rate                       : 75.000 fps
Standard                                 : PAL
Color space                              : YUV
Chroma subsampling                       : 4:2:0
Bit depth                                : 8 bits
Scan type                                : Progressive
Bits/(Pixel*Frame)                       : 0.067
Stream size                              : 1.22 GiB (95%)
Source stream size                       : 1.22 GiB (95%)
Encoded date                             : UTC 1904-01-01 00:00:00
Tagged date                              : UTC 1904-01-01 00:00:00
Color range                              : Limited
mdhd_Duration                            : 3004280

Audio
ID                                       : 2
Format                                   : AAC
Format/Info                              : Advanced Audio Codec
Format profile                           : LC
Codec ID                                 : 40
Duration                                 : 50mn 4s
Bit rate mode                            : Variable
Bit rate                                 : 192 Kbps
Maximum bit rate                         : 468 Kbps
Channel(s)                               : 2 channels
Channel positions                        : Front: L R
Sampling rate                            : 48.0 KHz
Frame rate                               : 46.875 fps (1024 spf)
Compression mode                         : Lossy
Stream size                              : 67.9 MiB (5%)
Encoded date                             : UTC 1904-01-01 00:00:00
Tagged date                              : UTC 1904-01-01 00:00:00


Скриншоты:
Изображение

Изображение

Изображение

Изображение

Изображение

Изображение

Похоже, в этом выпуске участвовал Lukachkinas

Скачать
Аватара пользователя
Gamer
 
Репутация: +43/-3
Сообщения: 323

Сообщение » 13.06.2020, 18:50

Эм...это литовская версия УиУ?
Аватара пользователя
RUSGENIUS
 
Репутация: +2/-21
Сообщения: 90


Вернуться в Видеоархив